Skoči na sadržaj

Važno Obaveštenje

Dobrodošli na naš forum, da biste mogli da preuzimate sadržaj sa našeg foruma potrebno je da se Prijavite ili Registrujete.


Samo kao registrovani član ostvarujete pravo na pristup svim delovima foruma, takodje sav sakriveni sadržaj biće Vam vidljiv.


Foto

3D Filmovi


40 odgovora na ovu temu

#41 cropirat

cropirat

    Aktivan član

  • Članovi
  • Reputation: 57
    Dobra
  • 138 postova
  • Država: Country Flag

Postovano 30 August 2013 - 07:48 PM

Star Trek Into Darkness 3D (2013) 1080p Half-SBS ENG - 3DSBS Release

b92a23273128941.jpg 01bdfb273128946.jpg

Format: MKV
Total Size: 9.66 GB

Video
ID : 1
Format : AVC
Format/Info : Advanced Video Codec
Format profile : High@L4.1
Format settings, CABAC : Yes
Format settings, ReFrames : 2 frames
Format settings, GOP : M=3, N=24
Muxing mode : Header stripping
Codec ID : V_MPEG4/ISO/AVC
Duration : 2h 12mn
Bit rate : 9 624 Kbps
Width : 1 920 pixels
Height : 800 pixels
Display aspect ratio : 2.40:1
Frame rate mode : Constant
Frame rate : 23.976 fps
Color space : YUV
Chroma subsampling : 4:2:0
Bit depth : 8 bits
Scan type : Progressive
Bits/(Pixel*Frame) : 0.261
Stream size : 8.88 GiB (92%)
Writing library : x264 core
Default : Yes
Forced : No
Color primaries : BT.709
Transfer characteristics : BT.709
Matrix coefficients : BT.709

Audio
ID : 2
Format : AC-3
Format/Info : Audio Coding 3
Mode extension : CM (complete main)
Format settings, Endianness : Big
Muxing mode : Header stripping
Codec ID : A_AC3
Duration : 2h 12mn
Bit rate mode : Constant
Bit rate : 640 Kbps
Channel(s) : 6 channels
Channel positions : Front: L C R, Side: L R, LFE
Sampling rate : 48.0 KHz
Bit depth : 16 bits
Compression mode : Lossy
Stream size : 605 MiB (6%)
Language : English
Default : Yes
Forced : No

Molimo Vas Prijavite se ili Registrujte da biste videli Sakriveni Sadržaj






eXTReMe Tracker