Skoči na sadržaj

Važno Obaveštenje

Dobrodošli na naš forum, da biste mogli da preuzimate sadržaj sa našeg foruma potrebno je da se Prijavite ili Registrujete.


Samo kao registrovani član ostvarujete pravo na pristup svim delovima foruma, takodje sav sakriveni sadržaj biće Vam vidljiv.


Foto

Ne le dis à personne (2006) AKA Tell No One

2006 francuska

U ovoj temi nema odgovora

#1 lemonzoo

lemonzoo

    Aktivan član

  • Članovi
  • Reputation: 12
    Neutralna
  • 42 postova
  • Država: Country Flag

Postovano 02 September 2016 - 04:56 PM

Ne.Le.Dis.A.Personne.2006.FRENCH.BRRip.x264.AC3-CHARTAIR

pvphwhslhjvx.jpg

Molimo Vas Prijavite se ili Registrujte da biste videli Sakriveni Sadržaj


 Police find two bodies at an old murder scene and evidence to suggest the first victim's husband is a murderer. The husband receives clues suggesting his deceased wife is actually alive and begins to investigate.

General
Unique ID                   : 226303603651443887263583761002604421592 (0xAA407D1A199EF1F198DB0883A11261D8)
Complete name               : Ne.Le.Dis.A.Personne.2006.FRENCH.BRRip.x264.AC3-CHARTAIR.mkv
Format                      : Matroska
Format version              : Version 4 / Version 2
File size                   : 2.05 GiB
Duration                    : 2h 10mn
Overall bit rate            : 2 242 Kbps
Encoded date                : UTC 2015-07-27 04:53:57
Writing application         : mkvmerge v8.2.0 ('World of Adventure') 64bit
Writing library             : libebml v1.3.1 + libmatroska v1.4.2
DURATION                    : 02:10:56.992000000
NUMBER_OF_FRAMES            : 245531
NUMBER_OF_BYTES             : 439991552
_STATISTICS_WRITING_APP     : mkvmerge v8.2.0 ('World of Adventure') 64bit
_STATISTICS_WRITING_DATE_UT : 2015-07-27 04:53:57
_STATISTICS_TAGS            : BPS DURATION NUMBER_OF_FRAMES NUMBER_OF_BYTES

Video
ID                          : 1
Format                      : AVC
Format/Info                 : Advanced Video Codec
Format profile              : High@L4.1
Format settings, CABAC      : Yes
Format settings, ReFrames   : 5 frames
Codec ID                    : V_MPEG4/ISO/AVC
Duration                    : 2h 10mn
Bit rate                    : 1 793 Kbps
Width                       : 720 pixels
Height                      : 304 pixels
Display aspect ratio        : 2.35:1
Frame rate mode             : Constant
Frame rate                  : 24.000 fps
Color space                 : YUV
Chroma subsampling          : 4:2:0
Bit depth                   : 8 bits
Scan type                   : Progressive
Bits/(Pixel*Frame)          : 0.341
Stream size                 : 1.60 GiB (78%)
Writing library             : x264 core 142 r2479 dd79a61
Encoding settings           : cabac=1 / ref=5 / deblock=1:-1:-1 / analyse=0x3:0x113 / me=umh / subme=8 / psy=1 / psy_rd=1.00:0.15 / mixed_ref=1 / me_range=16 / chroma_me=1 / trellis=1 / 8x8dct=1 / cqm=0 / deadzone=21,11 / fast_pskip=1 / chroma_qp_offset=-3 / threads=6 / lookahead_threads=1 / sliced_threads=0 / nr=0 / decimate=1 / interlaced=0 / bluray_compat=0 / constrained_intra=0 / bframes=3 / b_pyramid=2 / b_adapt=2 / b_bias=0 / direct=3 / weightb=1 / open_gop=0 / weightp=2 / keyint=250 / keyint_min=23 / scenecut=40 / intra_refresh=0 / rc_lookahead=50 / rc=2pass / mbtree=1 / bitrate=1793 / ratetol=1.0 / qcomp=0.60 / qpmin=0 / qpmax=69 / qpstep=4 / cplxblur=20.0 / qblur=0.5 / vbv_maxrate=50000 / vbv_bufsize=50000 / nal_hrd=none / filler=0 / ip_ratio=1.40 / aq=1:1.00
Default                     : Yes
Forced                      : No

Audio
ID                          : 2
Format                      : AC-3
Format/Info                 : Audio Coding 3
Mode extension              : CM (complete main)
Format settings, Endianness : Big
Codec ID                    : A_AC3
Duration                    : 2h 10mn
Bit rate mode               : Constant
Bit rate                    : 448 Kbps
Channel(s)                  : 6 channels
Channel positions           : Front: L C R, Side: L R, LFE
Sampling rate               : 48.0 KHz
Compression mode            : Lossy
Stream size                 : 420 MiB (20%)
Language                    : French
Default                     : Yes
Forced                      : No


ne.le.dis.a.personne.rjkoc.jpg

ne.le.dis.a.personne.9kkix.jpg

ne.le.dis.a.personne.erk41.jpg

ne.le.dis.a.personne.jhjv6.jpg


Molimo Vas Prijavite se ili Registrujte da biste videli Sakriveni Sadržaj


Subtitles:

Molimo Vas Prijavite se ili Registrujte da biste videli Sakriveni Sadržaj







Takođe s tagovima 2006, francuska

eXTReMe Tracker