Skoči na sadržaj

Važno Obaveštenje

Dobrodošli na naš forum, da biste mogli da preuzimate sadržaj sa našeg foruma potrebno je da se Prijavite ili Registrujete.


Samo kao registrovani član ostvarujete pravo na pristup svim delovima foruma, takodje sav sakriveni sadržaj biće Vam vidljiv.


Foto

Radiator (2014)

2014 uk

U ovoj temi nema odgovora

#1 lemonzoo

lemonzoo

    Aktivan član

  • Članovi
  • Reputation: 12
    Neutralna
  • 39 postova
  • Država: Country Flag

Postovano 13 September 2016 - 03:11 PM

Radiator (2014) 1080p

radiator_2014f6z0n.jpg

Molimo Vas Prijavite se ili Registrujte da biste videli Sakriveni Sadržaj


Daniel receives a call from his elderly mother; his father Leonard, has got stuck on the sofa. He travels to their remote farm to discover that they have fallen over the edge of eccentricity into outright squalor. With a only few days free from work Daniel tries to help but his parents are unable to adapt to their new circumstances. Maria continues with her gloriously impractical style. Leonard uses his professional skills as psychiatrist to thwart Daniel. Maria dies suddenly. Leonard is forced to leave the family home. Daniel returns to London with a freedom that his parents had lost.


General
Unique ID                   : 196810914937438473948261044863239293643 (0x941067483D202E67B6875086D9C18ACB)
Complete name               : Radijator 2014 1080p.mkv
Format                      : Matroska
Format version              : Version 4 / Version 2
File size                   : 875 MiB
Duration                    : 1h 29mn
Overall bit rate            : 1 364 Kbps
Encoded date                : UTC 2016-09-06 17:31:54
Writing application         : mkvmerge v7.1.0 ('Good Love') 32bit built on Jul 27 2014 12:59:18
Writing library             : libebml v1.3.0 + libmatroska v1.4.1
DURATION                    : 01:29:44.256000000
NUMBER_OF_FRAMES            : 224344
NUMBER_OF_BYTES             : 129222144
_STATISTICS_WRITING_APP     : mkvmerge v7.1.0 ('Good Love') 32bit built on Jul 27 2014 12:59:18
_STATISTICS_WRITING_DATE_UT : 2016-09-06 17:31:54
_STATISTICS_TAGS            : BPS DURATION NUMBER_OF_FRAMES NUMBER_OF_BYTES

Video
ID                          : 1
Format                      : AVC
Format/Info                 : Advanced Video Codec
Format profile              : High@L4.0
Format settings, CABAC      : Yes
Format settings, ReFrames   : 4 frames
Codec ID                    : V_MPEG4/ISO/AVC
Duration                    : 1h 29mn
Bit rate                    : 1 145 Kbps
Width                       : 1 920 pixels
Height                      : 1 080 pixels
Display aspect ratio        : 16:9
Frame rate mode             : Constant
Frame rate                  : 25.000 fps
Standard                    : Component
Color space                 : YUV
Chroma subsampling          : 4:2:0
Bit depth                   : 8 bits
Scan type                   : Interlaced
Scan order                  : Top Field First
Bits/(Pixel*Frame)          : 0.022
Stream size                 : 735 MiB (84%)
Default                     : Yes
Forced                      : No
Color primaries             : BT.709
Transfer characteristics    : BT.709
Matrix coefficients         : BT.709
Color range                 : Limited

Audio
ID                          : 2
Format                      : MPEG Audio
Format version              : Version 1
Format profile              : Layer 2
Mode                        : Joint stereo
Mode extension              : Intensity Stereo + MS Stereo
Codec ID                    : A_MPEG/L2
Codec ID/Hint               : MP2
Duration                    : 1h 29mn
Bit rate mode               : Constant
Bit rate                    : 192 Kbps
Channel(s)                  : 2 channels
Sampling rate               : 48.0 KHz
Compression mode            : Lossy
Stream size                 : 123 MiB (14%)
Language                    : Croatian
Default                     : Yes
Forced                      : No


radijator20141080p.mkf6zt6.jpg

radijator20141080p.mkhmle2.jpg

radijator20141080p.mku9l0p.jpg

radijator20141080p.mk86z1k.jpg


Molimo Vas Prijavite se ili Registrujte da biste videli Sakriveni Sadržaj



Prijevod:

Molimo Vas Prijavite se ili Registrujte da biste videli Sakriveni Sadržaj







Takođe s tagovima 2014, uk

eXTReMe Tracker