Skoči na sadržaj

Važno Obaveštenje

Dobrodošli na naš forum, da biste mogli da preuzimate sadržaj sa našeg foruma potrebno je da se Prijavite ili Registrujete.


Samo kao registrovani član ostvarujete pravo na pristup svim delovima foruma, takodje sav sakriveni sadržaj biće Vam vidljiv.


Foto

My Name Is Emily (2015)

2015 uk

U ovoj temi nema odgovora

#1 lemonzoo

lemonzoo

    Aktivan član

  • Članovi
  • Reputation: 12
    Neutralna
  • 40 postova
  • Država: Country Flag

Postovano 16 September 2016 - 09:38 AM

My Name Is Emily (2015) 1080p

my_name_is_emily_2015juuff.jpg

Molimo Vas Prijavite se ili Registrujte da biste videli Sakriveni Sadržaj


 A teenage girl runs away from a foster home with the boy who loves her. She searches for her visionary writer father who is locked up in a psychiatric institution. It is a story of redemption.

General
Unique ID                   : 175066634616212953003257041426340021803 (0x83B49B7DB7AC1C06AE11ED83895A862B)
Complete name               : My Name Is Emily (2015) 1080p.mkv
Format                      : Matroska
Format version              : Version 4 / Version 2
File size                   : 1.70 GiB
Duration                    : 1h 30mn
Overall bit rate            : 2 688 Kbps
Encoded date                : UTC 2016-09-12 00:11:42
Writing application         : mkvmerge v7.1.0 ('Good Love') 32bit built on Jul 27 2014 12:59:18
Writing library             : libebml v1.3.0 + libmatroska v1.4.1
DURATION                    : 01:30:28.704000000
NUMBER_OF_FRAMES            : 226196
NUMBER_OF_BYTES             : 130288896
_STATISTICS_WRITING_APP     : mkvmerge v7.1.0 ('Good Love') 32bit built on Jul 27 2014 12:59:18
_STATISTICS_WRITING_DATE_UT : 2016-09-12 00:11:42
_STATISTICS_TAGS            : BPS DURATION NUMBER_OF_FRAMES NUMBER_OF_BYTES

Video
ID                          : 1
Format                      : AVC
Format/Info                 : Advanced Video Codec
Format profile              : High@L4.0
Format settings, CABAC      : Yes
Format settings, ReFrames   : 4 frames
Codec ID                    : V_MPEG4/ISO/AVC
Duration                    : 1h 30mn
Bit rate                    : 2 443 Kbps
Width                       : 1 920 pixels
Height                      : 1 080 pixels
Display aspect ratio        : 16:9
Frame rate mode             : Constant
Frame rate                  : 25.000 fps
Standard                    : Component
Color space                 : YUV
Chroma subsampling          : 4:2:0
Bit depth                   : 8 bits
Scan type                   : Interlaced
Scan order                  : Top Field First
Bits/(Pixel*Frame)          : 0.047
Stream size                 : 1.54 GiB (91%)
Default                     : Yes
Forced                      : No
Color primaries             : BT.709
Transfer characteristics    : BT.709
Matrix coefficients         : BT.709
Color range                 : Limited

Audio
ID                          : 2
Format                      : MPEG Audio
Format version              : Version 1
Format profile              : Layer 2
Codec ID                    : A_MPEG/L2
Codec ID/Hint               : MP2
Duration                    : 1h 30mn
Bit rate mode               : Constant
Bit rate                    : 192 Kbps
Channel(s)                  : 2 channels
Sampling rate               : 48.0 KHz
Compression mode            : Lossy
Stream size                 : 124 MiB (7%)
Language                    : English
Default                     : Yes
Forced                      : No



mynameisemily2015108084ujp.jpg

mynameisemily20151080squa9.jpg

mynameisemily20151080spu45.jpg

mynameisemily20151080aeu9i.jpg


Molimo Vas Prijavite se ili Registrujte da biste videli Sakriveni Sadržaj


Password:

Molimo Vas Prijavite se ili Registrujte da biste videli Sakriveni Sadržaj



Prijevod:

Molimo Vas Prijavite se ili Registrujte da biste videli Sakriveni Sadržaj







Takođe s tagovima 2015, uk

eXTReMe Tracker