Jump to content
Sign in to follow this  
lemonzoo

Ghadi (2013)

Recommended Posts

Ghadi (2013) 1080p

ghadi_2013yfkq0.jpg

Sakriveni sadžaj

    Dajte reakciju na ovaj post pritiskom na "Like dugme", da biste videli sakriveni sadržaj.

In a small neighborhood of a traditional Lebanese coastal town, Leba (Georges Khabbaz), a music instructor, marries his childhood sweetheart Lara. To the dismay of his family, neighbors, and friends, he has a first baby girl and then a second one. Lara is pregnant for the third time, and yes, it's a BOY! However, medical tests show that the boy will have special needs. Will Leba and Lara keep the baby? Will little Ghadi become a burden on the family, or will he be its pride and joy? Expect strange phenomena to affect the behavior and beliefs of that little town's population.

 

General
Unique ID                   : 231582869513718092056912320831451814221 (0xAE393D01409935ABA4DC7A3CBD3FD94D)
Complete name               : Ghadi (2013) 1080p.mkv
Format                      : Matroska
Format version              : Version 4 / Version 2
File size                   : 975 MiB
Duration                    : 1h 37mn
Overall bit rate            : 1 404 Kbps
Encoded date                : UTC 2016-09-14 21:58:35
Writing application         : mkvmerge v7.1.0 ('Good Love') 32bit built on Jul 27 2014 12:59:18
Writing library             : libebml v1.3.0 + libmatroska v1.4.1
DURATION                    : 01:37:05.040000000
NUMBER_OF_FRAMES            : 242710
NUMBER_OF_BYTES             : 139800960
_STATISTICS_WRITING_APP     : mkvmerge v7.1.0 ('Good Love') 32bit built on Jul 27 2014 12:59:18
_STATISTICS_WRITING_DATE_UT : 2016-09-14 21:58:35
_STATISTICS_TAGS            : BPS DURATION NUMBER_OF_FRAMES NUMBER_OF_BYTES

Video
ID                          : 1
Format                      : AVC
Format/Info                 : Advanced Video Codec
Format profile              : High@L4.0
Format settings, CABAC      : Yes
Format settings, ReFrames   : 4 frames
Codec ID                    : V_MPEG4/ISO/AVC
Duration                    : 1h 37mn
Bit rate                    : 1 184 Kbps
Width                       : 1 920 pixels
Height                      : 1 080 pixels
Display aspect ratio        : 16:9
Frame rate mode             : Constant
Frame rate                  : 25.000 fps
Standard                    : Component
Color space                 : YUV
Chroma subsampling          : 4:2:0
Bit depth                   : 8 bits
Scan type                   : Interlaced
Scan order                  : Top Field First
Bits/(Pixel*Frame)          : 0.023
Stream size                 : 822 MiB (84%)
Default                     : Yes
Forced                      : No
Color primaries             : BT.709
Transfer characteristics    : BT.709
Matrix coefficients         : BT.709
Color range                 : Limited

Audio
ID                          : 2
Format                      : MPEG Audio
Format version              : Version 1
Format profile              : Layer 2
Mode                        : Joint stereo
Mode extension              : Intensity Stereo + MS Stereo
Codec ID                    : A_MPEG/L2
Codec ID/Hint               : MP2
Duration                    : 1h 37mn
Bit rate mode               : Constant
Bit rate                    : 192 Kbps
Channel(s)                  : 2 channels
Sampling rate               : 48.0 KHz
Compression mode            : Lossy
Stream size                 : 133 MiB (14%)
Language                    :  Arabic
Default                     : Yes
Forced                      : No



ghadi20131080p.mkv_sn2pjmy.jpg

ghadi20131080p.mkv_snjvjke.jpg

ghadi20131080p.mkv_snc7klb.jpg

ghadi20131080p.mkv_sn8pj46.jpg


Sakriveni sadžaj

    Dajte reakciju na ovaj post pritiskom na "Like dugme", da biste videli sakriveni sadržaj.


Titl:

Sakriveni sadžaj

    Dajte reakciju na ovaj post pritiskom na "Like dugme", da biste videli sakriveni sadržaj.

Share this post


Link to post
Share on other sites

Create an account or sign in to comment

You need to be a member in order to leave a comment

Create an account

Sign up for a new account in our community. It's easy!

Register a new account

Sign in

Already have an account? Sign in here.

Sign In Now

Sign in to follow this  

×