Skoči na sadržaj

Važno Obaveštenje

Dobrodošli na naš forum, da biste mogli da preuzimate sadržaj sa našeg foruma potrebno je da se Prijavite ili Registrujete.


Samo kao registrovani član ostvarujete pravo na pristup svim delovima foruma, takodje sav sakriveni sadržaj biće Vam vidljiv.


Foto

Die Hitzewelle - Keiner kann entkommen (2008)

2008 njemacka

U ovoj temi nema odgovora

#1 lemonzoo

lemonzoo

    Aktivan član

  • Članovi
  • Reputation: 12
    Neutralna
  • 38 postova
  • Država: Country Flag

Postovano 03 December 2016 - 05:01 PM

Die.Hitzewelle.Keiner.kann.entkommen.German.2008.WS.dTV.XviD-KLASSiGER

die_hitzewelle_keinerk5uap.jpg

Molimo Vas Prijavite se ili Registrujte da biste videli Sakriveni Sadržaj


A German summer of the century develops into a summer of the millennium. A blanket of smothering heat has descended over the country. Tempers are flaring, the health system is close to a breakdown and the agricultural, water and energy industries are near a total collapse.
Although the situation throughout the entire country is dramatic, it is the Ruhr district that is suffering the most. This region, which has the highest population density in the whole of Europe, receives more than half of its water supply from the river Ruhr.
But the water reservoirs are nearly empty. Even the emergency system that pumps water from the Rhine into the Ruhr is useless because the Rhine as well has been reduced to little more than a trickle. A worst-case scenario looms: a complete breakdown of the water supply system.
The hydrologist Dr. Martina Fechner had issued warnings about exactly this scenario, but until the first incident occurred, those warnings fell on deaf ears. Now that her dire predictions have become hard reality, her expertise suddenly warrants her promotion to the position of Crisis Manager. She and her team immediately begin implementing emergency measures to reduce the area’s water usage and pollution.
The subsequent restrictions affect not only the population, but every area of the economy as well. Everybody is forced to suffer under the extreme but critical limitations imposed on them…
Being a woman in a male dominated field makes life very difficult. She’s forced to contend with political interference and the various interest groups who attempt to manipulate and sabotage her work.
She must tread with extreme care to avoid their traps. Even her integrity is coming under fire.
But knowing that the water supply for 5 million people will soon disappear without her immediate intervention, Dr. Martina Fechner stubbornly keeps fighting against the mounting odds.
The weather is merciless, with the temperature remaining over a staggering 40° Celsius. The critical point of the water supply system has been reached. The only thing that can now prevent a massive loss of life is the building of a drinking water reservoir that Martina has miraculously managed to set into motion.
But then comes what appears to be the tragic and fatal blow… because of someone’s irresponsible mistake, the water meant to save them all has been contaminated with the Legionella bacteria…

General
Format                      : AVI
Format/Info                 : Audio Video Interleave
Format profile              : OpenDML
Format settings             : rec
File size                   : 699 MiB
Duration                    : 1h 34mn
Overall bit rate mode       : Variable
Overall bit rate            : 1 033 Kbps
Writing application         : AVI-Mux GUI 1.17.7, Aug  8 2006  20:59:17

Video
ID                          : 0
Format                      : MPEG-4 Visual
Format profile              : Advanced Simple@L5
Format settings, BVOP       : 2
Format settings, QPel       : No
Format settings, GMC        : No warppoints
Format settings, Matrix     : Default (H.263)
Codec ID                    : XVID
Codec ID/Hint               : XviD
Duration                    : 1h 34mn
Bit rate                    : 892 Kbps
Width                       : 640 pixels
Height                      : 352 pixels
Display aspect ratio        : 16:9
Frame rate                  : 25.000 fps
Color space                 : YUV
Chroma subsampling          : 4:2:0
Bit depth                   : 8 bits
Scan type                   : Progressive
Compression mode            : Lossy
Bits/(Pixel*Frame)          : 0.158
Stream size                 : 604 MiB (86%)
Writing library             : XviD 1.2.1 (UTC 2008-12-04)

Audio
ID                          : 1
Format                      : MPEG Audio
Format version              : Version 1
Format profile              : Layer 3
Mode                        : Joint stereo
Mode extension              : MS Stereo
Codec ID                    : 55
Codec ID/Hint               : MP3
Duration                    : 1h 34mn
Bit rate mode               : Variable
Bit rate                    : 132 Kbps
Nominal bit rate            : 140 Kbps
Channel(s)                  : 2 channels
Sampling rate               : 48.0 KHz
Compression mode            : Lossy
Stream size                 : 89.6 MiB (13%)
Alignment                   : Aligned on interleaves
Interleave, duration        : 24 ms (0.60 video frame)
Interleave, preload duratio : 217 ms
Writing library             : LAME3.97b
Encoding settings           : -m j -V 4 -q 3 -lowpass 17 --abr 140



klassiger-hitzewellek9luo7.jpg

klassiger-hitzewellekvoun6.jpg

klassiger-hitzewellek7gu5v.jpg

klassiger-hitzewellekgju2n.jpg


Molimo Vas Prijavite se ili Registrujte da biste videli Sakriveni Sadržaj




Titl:

Molimo Vas Prijavite se ili Registrujte da biste videli Sakriveni Sadržaj






eXTReMe Tracker