Skoči na sadržaj

Važno Obaveštenje

Dobrodošli na naš forum, da biste mogli da preuzimate sadržaj sa našeg foruma potrebno je da se Prijavite ili Registrujete.


Samo kao registrovani član ostvarujete pravo na pristup svim delovima foruma, takodje sav sakriveni sadržaj biće Vam vidljiv.


Foto

Private Property (1960)

1960 sad seks nasilje

U ovoj temi nema odgovora

#1 lemonzoo

lemonzoo

    Aktivan član

  • Članovi
  • Reputation: 12
    Neutralna
  • 38 postova
  • Država: Country Flag

Postovano 22 December 2016 - 08:02 AM

Private Property (1960)

private_property_19606bujq.jpg

Molimo Vas Prijavite se ili Registrujte da biste videli Sakriveni Sadržaj


Duke i Boots (Corey Allen i Warren Oates), dva mlada razbojnika, opljačkaju benzinsku crpku u Kaliforniji. Duke, energičan i divlji, zadirkuje Bootsa jer nikad nije imao seksualno osvajanje. Nudi mu da će za njega zavesti ženu koju su upravo primijetili u Cadillacu te njih dvojica sjedaju u auto Eda Hogatea (Jerome Cowan), čovjeka koji se igrom slučaja zatekao tu, i natjeraju ga da krene u potjeru za njom.
Žena je Ann Carlyle (Kate Manx), strastvena i pohotna supruga rukovoditelja osiguravateljske kompanije (Robert Wark), kojoj on ne pruža sve što joj je potrebno.
Razbojnički duo useljava se u susjednu kuću u kojoj nitko ne živi i kreće u izvršenje svoga plana.

General
Complete name : PP60.mp4
Format : MPEG-4
Format profile : Base Media / Version 2
Codec ID : mp42
File size : 825 MiB
Duration : 1h 20mn
Overall bit rate mode : Variable
Overall bit rate : 1 436 Kbps
Movie name : PRIVATE PROPERTY.Title1
Album : PRIVATE PROPERTY
Encoded date : UTC 2016-12-18 23:01:27
Tagged date : UTC 2016-12-18 23:33:31
Writing application : DVDFab 9.1.6.8
covr : Unknown kind of value!

Video
ID : 1
Format : AVC
Format/Info : Advanced Video Codec
Format profile : Main@L3.0
Format settings, CABAC : Yes
Format settings, ReFrames : 1 frame
Format settings, GOP : N=1
Codec ID : avc1
Codec ID/Info : Advanced Video Coding
Duration : 1h 20mn
Bit rate mode : Variable
Bit rate : 1 300 Kbps
Width : 720 pixels
Height : 432 pixels
Display aspect ratio : 1.667
Frame rate mode : Constant
Frame rate : 23.976 fps
Color space : YUV
Chroma subsampling : 4:2:0
Bit depth : 8 bits
Scan type : Progressive
Bits/(Pixel*Frame) : 0.174
Stream size : 746 MiB (91%)
Writing library : x264 core 142
Encoding settings : cabac=1 / ref=1 / deblock=1:0:0 / analyse=0x1:0x111 / me=umh / subme=6 / psy=0 / mixed_ref=0 / me_range=12 / chroma_me=1 / trellis=0 / 8x8dct=0 / cqm=0 / deadzone=21,11 / fast_pskip=1 / chroma_qp_offset=0 / threads=4 / lookahead_threads=1 / sliced_threads=0 / nr=0 / decimate=1 / interlaced=0 / bluray_compat=0 / constrained_intra=0 / bframes=0 / weightp=0 / keyint=24 / keyint_min=13 / scenecut=40 / intra_refresh=0 / rc=2pass / mbtree=0 / bitrate=1300 / ratetol=1.0 / qcomp=0.60 / qpmin=0 / qpmax=69 / qpstep=4 / cplxblur=20.0 / qblur=0.5 / ip_ratio=1.40 / aq=1:1.00
Encoded date : UTC 2016-12-18 23:01:27
Tagged date : UTC 2016-12-18 23:33:30
Color primaries : BT.601-6 525, BT.1358 525, BT.1700 NTSC, SMPTE 170M
Transfer characteristics : BT.709-5, BT.1361
Matrix coefficients : BT.601-6 525, BT.1358 525, BT.1700 NTSC, SMPTE 170M

Audio
ID : 2
Format : AAC
Format/Info : Advanced Audio Codec
Format profile : LC
Codec ID : 40
Duration : 1h 20mn
Bit rate mode : Variable
Bit rate : 128 Kbps
Maximum bit rate : 134 Kbps
Channel(s) : 2 channels
Channel positions : Front: L R
Sampling rate : 48.0 KHz
Compression mode : Lossy
Stream size : 73.5 MiB (9%)
Language : English
Encoded date : UTC 2016-12-18 23:01:27
Tagged date : UTC 2016-12-18 23:33:23

Text #1
ID : 3
Format : mp4s
Codec ID : E0
Duration : 1h 19mn
Bit rate mode : Variable
Bit rate : 1 852 bps
Maximum bit rate : 4 275 Mbps
Stream size : 1.06 MiB (0%)
Language : English
Encoded date : UTC 2016-12-18 23:01:27
Tagged date : UTC 2016-12-18 23:33:23

Text #2
ID : 4
Format : Apple text
Codec ID : text
Duration : 1h 20mn
Bit rate mode : Variable
Bit rate : 0 bps
Stream size : 279 Bytes (0%)
Encoded date : UTC 2016-12-18 23:01:27
Tagged date : UTC 2016-12-18 23:33:31


pp60.mp4_snapshot_00.6iu51.jpg

pp60.mp4_snapshot_00.k7u3c.jpg

pp60.mp4_snapshot_01.9hu0k.jpg

pp60.mp4_snapshot_01.ttu17.jpg


Molimo Vas Prijavite se ili Registrujte da biste videli Sakriveni Sadržaj



Titl:

Molimo Vas Prijavite se ili Registrujte da biste videli Sakriveni Sadržaj







Takođe s tagovima 1960, sad, seks, nasilje

eXTReMe Tracker