Jump to content
Bo0mB0om

Udemy x86 Assembly Language From Ground Up (2019)

Recommended Posts


5c10bed02176cf0a1c12a5547c205c23.jpg

Udemy - x86 Assembly Language From Ground Up (2019)
WEBRip | English | MP4 | 1280 x 720 | AVC ~698 Kbps | 30 fps
AAC | 128 Kbps | 44.1 KHz | 2 channels | ~15.5 hours | 6.29 GB
Genre: Video Tutorial
Build over 50 Assembly Programs - x86 Instruction Set, SIMD, Image Processing Algorithms, DSP Routines, MMX, SSE, AVX

Build over 50 Assembly Programs - x86 Instruction Set, SIMD, Image Processing Algorithms, DSP Routines, MMX, SSE, AVX

Welcome to the x86 Assembly Programming From Ground Up™ course.

Covering x86 Processor History , Architecture and Practical Assembly Programming, this is the most comprehensive x86 assembly course online.

I'll take you step-by-step through engaging and fun video tutorials and teach you everything you need to know to succeed as an x86 developer.

By the end of this course you will master the x86 Core Instruction Set, the x86 MMX Extension Instruction Set, the x86 Streaming SIMD Extension (SSE) Instruction Set and the x86 Advanced Vector Extension (AVX ) Instruction Set. You will be able to develop complex Image Processing Algorithms in x86 Assembly. You will be able to develop complex mathematical algorithms in x86 assembly .You will also be able to write robust programs that mix C++ and x86 Assembly files.

Furthermore, you will master every day things like navigating arrays, computing the statistical properties of an array such as computing the mean and standard deviation of each row and column. All of this written in assembly language. There is so much more. Please take a look at the full course curriculum.

What you'll learn

Master the x86 Core Instruction Set
Understand the coding differences between x86-32 and x86 -64
Master the x86 MMX Extension Instruction Set
Master the x86 Streaming SIMD Extension (SSE) Instruction Set
Master the x86 Advanced Vector Extension (AVX ) Instruction Set
Develop Complex Image Processing Algorithms in x86 Assembly
Develop Complex Mahtematical Algorithms in x86 Assembly
Be able to understand and apply the IEEE- 754 Floating point standard
Be able to create Lookup Tables and Jump Tables in x86 Assembly
Be able to Write Robust Mixed C/C++ and x86 Assembly Code
Master the MASM Assembler Syntax

General
Complete name : 6. Coding Scanning an Array.mp4
Format : MPEG-4
Format profile : Base Media
Codec ID : isom (isom/iso2/avc1/mp41)
File size : 59.9 MiB
Duration : 10 min 1 s
Overall bit rate : 835 kb/s
Writing application : Lavf58.12.100

Video
ID : 1
Format : AVC
Format/Info : Advanced Video Codec
Format profile : Main@L3.1
Format settings : CABAC / 4 Ref Frames
Format settings, CABAC : Yes
Format settings, RefFrames : 4 frames
Codec ID : avc1
Codec ID/Info : Advanced Video Coding
Duration : 10 min 1 s
Bit rate : 698 kb/s
Nominal bit rate : 3 000 kb/s
Width : 1 280 pixels
Height : 720 pixels
Display aspect ratio : 16:9
Frame rate mode : Constant
Frame rate : 30.000 FPS
Color space : YUV
Chroma subsampling : 4:2:0
Bit depth : 8 bits
Scan type : Progressive
Bits/(Pixel*Frame) : 0.025
Stream size : 50.1 MiB (84%)
Writing library : x264 core 148
Encoding settings : cabac=1 / ref=3 / deblock=1:-1:-1 / analyse=0x1:0x111 / me=umh / subme=6 / psy=1 / psy_rd=1.00:0.15 / mixed_ref=1 / me_range=16 / chroma_me=1 / trellis=1 / 8x8dct=0 / cqm=0 / deadzone=21,11 / fast_pskip=1 / chroma_qp_offset=-3 / threads=22 / lookahead_threads=3 / sliced_threads=0 / nr=0 / decimate=1 / interlaced=0 / bluray_compat=0 / constrained_intra=0 / bframes=3 / b_pyramid=2 / b_adapt=1 / b_bias=0 / direct=1 / weightb=1 / open_gop=0 / weightp=2 / keyint=60 / keyint_min=6 / scenecut=0 / intra_refresh=0 / rc_lookahead=60 / rc=cbr / mbtree=1 / bitrate=3000 / ratetol=1.0 / qcomp=0.60 / qpmin=0 / qpmax=69 / qpstep=4 / vbv_maxrate=3000 / vbv_bufsize=6000 / nal_hrd=none / filler=0 / ip_ratio=1.40 / aq=1:1.00

Audio
ID : 2
Format : AAC
Format/Info : Advanced Audio Codec
Format profile : LC
Codec ID : mp4a-40-2
Duration : 10 min 1 s
Bit rate mode : Constant
Bit rate : 128 kb/s
Channel(s) : 2 channels
Channel positions : Front: L R
Sampling rate : 44.1 kHz
Frame rate : 43.066 FPS (1024 SPF)
Compression mode : Lossy
Stream size : 9.18 MiB (15%)
Default : Yes
Alternate group : 1

Screenshots

82b11d73222f565ead6dcb1a5f680544.jpg

eab9dfa1fe79cdb9c8d80886fb2c01d4.jpg

d3d0f5bccde9d5d86fa1628a6e92f285.jpg
DOWNLOAD

Sakriveni sadžaj

    Dajte reakciju na ovaj post pritiskom na "Like dugme", da biste videli sakriveni sadržaj.



Sakriveni sadžaj

    Dajte reakciju na ovaj post pritiskom na "Like dugme", da biste videli sakriveni sadržaj.



Share this post


Link to post
Share on other sites

Create an account or sign in to comment

You need to be a member in order to leave a comment

Create an account

Sign up for a new account in our community. It's easy!

Register a new account

Sign in

Already have an account? Sign in here.

Sign In Now


×