Jump to content
Bo0mB0om

Workshop of Charles Neil Making Large Panels

Recommended Posts


70787aa61059be3afdacd0951190460f.jpg

Workshop of Charles Neil - Making Large Panels
DVDRip | English | MP4 | 624 x 416 | AVC ~930 kbps | 29.970 fps
AAC | 110 kbps | 48.0 KHz | 2 channels | 1h 32min | 688 MB
Genre: elearning / Woodworking
Charles Neil takes you through grain matching, ripping, gluing, surfacing and creating large panels for case sides, table tops and more. A lot of information about panel making packed into a 92 minute visit with Charles Neil at his workshop.

General
Complete name : Workshop of Charles Neil - Making Large Panels.mp4
Format : MPEG-4
Format profile : Base Media / Version 2
Codec ID : mp42 (mp42/ndhd/avc1/isom)
File size : 688 MiB
Duration : 1 h 32 min
Overall bit rate mode : Variable
Overall bit rate : 1 044 kb/s
Encoded date : UTC 2010-02-25 19:14:37
Tagged date : UTC 2010-02-26 01:40:48

Video
ID : 1
Format : AVC
Format/Info : Advanced Video Codec
Format profile : Main@L3
Format settings : CABAC / 2 Ref Frames
Format settings, CABAC : Yes
Format settings, RefFrames : 2 frames
Codec ID : avc1
Codec ID/Info : Advanced Video Coding
Duration : 1 h 32 min
Bit rate : 930 kb/s
Maximum bit rate : 3 079 kb/s
Width : 624 pixels
Height : 416 pixels
Display aspect ratio : 4:3
Frame rate mode : Constant
Frame rate : 29.970 (30000/1001) FPS
Standard : NTSC
Color space : YUV
Chroma subsampling : 4:2:0
Bit depth : 8 bits
Scan type : Progressive
Bits/(Pixel*Frame) : 0.119
Stream size : 613 MiB (89%)
Language : English
Encoded date : UTC 2010-02-25 19:14:37
Tagged date : UTC 2010-02-26 01:40:48
Color range : Limited

Audio
ID : 2
Format : AAC
Format/Info : Advanced Audio Codec
Format profile : LC
Codec ID : mp4a-40-2
Duration : 1 h 32 min
Bit rate mode : Variable
Bit rate : 110 kb/s
Maximum bit rate : 122 kb/s
Channel(s) : 2 channels
Channel positions : Front: L R
Sampling rate : 48.0 kHz
Frame rate : 46.875 FPS (1024 SPF)
Compression mode : Lossy
Stream size : 72.5 MiB (11%)
Language : English
Encoded date : UTC 2010-02-25 19:14:37
Tagged date : UTC 2010-02-26 01:40:48

Menu
00:00:00.000 :

ScreenShots

006ca69b_medium.png

006ca69c_medium.png

006ca69d_medium.png
DOWNLOAD

Sakriveni sadžaj

    Dajte reakciju na ovaj post pritiskom na "Like dugme", da biste videli sakriveni sadržaj.



Sakriveni sadžaj

    Dajte reakciju na ovaj post pritiskom na "Like dugme", da biste videli sakriveni sadržaj.



Share this post


Link to post
Share on other sites

Create an account or sign in to comment

You need to be a member in order to leave a comment

Create an account

Sign up for a new account in our community. It's easy!

Register a new account

Sign in

Already have an account? Sign in here.

Sign In Now


×