Skoči na sadržaj

Važno Obaveštenje

Dobrodošli na naš forum, da biste mogli da preuzimate sadržaj sa našeg foruma potrebno je da se Prijavite ili Registrujete.


Samo kao registrovani član ostvarujete pravo na pristup svim delovima foruma, takodje sav sakriveni sadržaj biće Vam vidljiv.


Foto

Balkanska pravila (1997)


1 odgovora na ovu temu

#1 pparadiso™

pparadiso™

    ..:drummer:..

  • V.I.P
  • Reputation: 329
    Odlična
  • 2183 postova
  • Država: Country Flag

Postovano 13 March 2013 - 05:52 PM

Balkanska pravila (1997)

Postavljena slika

Molimo Vas Prijavite se ili Registrujte da biste videli Sakriveni Sadržaj


Akcioni film o tajnim odnosima jugoslovenske, srpske i hrvatske tajne policije kroz 50 godina. Ovde na Balkanu istina i lazi su pomesani i to toliko dugo traje da niko ne nalazi razliku. Mozda je zato ova izmisljena prica u stvari istinita.

Uloge:

Branislav Lecic
Lazar Ristovski
Ana Sofrenovic
Aleksandar Bercek
Dragan Bjelogrlic
Tanja Bosković
Nikola Kojo
Branko Vidakovic
Danilo Bata Stojkovic
Velimir BataZivojinovic

Rezija:Darko Bajic

Postavljena slika

Format : AVI
Format/Info : Audio Video Interleave
Format profile : OpenDML
Format settings : rec
File size : 700 MiB
Duration : 1h 52mn
Overall bit rate : 867 Kbps
Writing application : AVI-Mux GUI 1.16.8, Aug 24 2004 12:42:57

Video
ID : 0
Format : MPEG-4 Visual
Format profile : Advanced Simple@L5
Format settings, BVOP : 1
Format settings, QPel : No
Format settings, GMC : No warppoints
Format settings, Matrix : Default (H.263)
Muxing mode : Packed bitstream
Codec ID : XVID
Codec ID/Hint : XviD
Duration : 1h 52mn
Bit rate : 784 Kbps
Width : 592 pixels
Height : 336 pixels
Display aspect ratio : 16:9
Frame rate : 25.000 fps
Color space : YUV
Chroma subsampling : 4:2:0
Bit depth : 8 bits
Scan type : Progressive
Compression mode : Lossy
Bits/(Pixel*Frame) : 0.158
Stream size : 633 MiB (90%)
Writing library : XviD 1.2.0.dev42 (UTC 2005-12)

Audio
ID : 1
Format : MPEG Audio
Format version : Version 1
Format profile : Layer 3
Codec ID : 55
Codec ID/Hint : MP3
Duration : 1h 52mn
Bit rate mode : Constant
Bit rate : 80.0 Kbps
Channel(s) : 1 channel
Sampling rate : 48.0 KHz
Compression mode : Lossy
Stream size : 64.6 MiB (9%)
Alignment : Aligned on interleaves
Interleave, duration : 1000 ms (25.00 video frames)
Interleave, preload duration : 216 ms


Postavljena slika

Molimo Vas Prijavite se ili Registrujte da biste videli Sakriveni Sadržaj


Postavljena slika

Molimo Vas Prijavite se ili Registrujte da biste videli Sakriveni Sadržaj

Postavljena slika
  • misapop, vlaha8 i igorce13 se ovo sviđa

Nikad ne raspravljaj sa budalom. Prvo ce te spustiti na svoj nivo, a onda dobiti na iskustvo!


#2 Master85

Master85

    Nov član

  • Članovi
  • Reputation: 0
    Neutralna
  • 1 postova
  • Država: Country Flag

Postovano 22 April 2015 - 07:58 PM

Javlja mi poruku "File is corrupted". U čemu je problem?






eXTReMe Tracker