Jump to content
Sign in to follow this  
Doctor

August-Osage County 2013

Recommended Posts

August-Osage County DVDScr XVID AC3 HQ Hive-CM8

qqjp.jpg

August-Osage County.2013.DVDScr.XVID.AC3.HQ.Hive-CM8

 

Thx Hive

 

CM8 Doing It Right The First Time

 

Source: DVDScr DVD-R Big thanks DRs

 

 

Encode:

 

quality was nice on the dvd, a bit dark and yellowish, otherwise great

fixed the colouring added brightness and sharpness

 

got very nice

enjoy till next scr

 

Video: 720x304 @bitrate 1500 2pass

Audio: English AC3 5.1 @448

Sample: yes included

 

General

Complete name : August-Osage County.2013.DVDScr.XVID.AC3.HQ.Hive-CM8.avi

Format : AVI

Format/Info : Audio Video Interleave

File size : 1.65 GiB

Duration : 2h 0mn

Overall bit rate : 1 957 Kbps

Writing application : Nandub v1.0rc2

Writing library : Nandub build 1853/release

 

Video

ID : 0

Format : MPEG-4 Visual

Format profile : Advanced Simple@L5

Format settings, BVOP : 2

Format settings, QPel : Yes

Format settings, GMC : No warppoints

Format settings, Matrix : Default (H.263)

Muxing mode : Packed bitstream

Codec ID : XVID

Codec ID/Hint : XviD

Duration : 2h 0mn

Bit rate : 1 500 Kbps

Width : 720 pixels

Height : 304 pixels

Display aspect ratio : 2.35:1

Frame rate : 23.976 fps

Color space : YUV

Chroma subsampling : 4:2:0

Bit depth : 8 bits

Scan type : Progressive

Compression mode : Lossy

Bits/(Pixel*Frame) : 0.286

Stream size : 1.27 GiB (77%)

Writing library : XviD 1.2.1 (UTC 2008-12-04)

 

Audio

ID : 1

Format : AC-3

Format/Info : Audio Coding 3

Mode extension : CM (complete main)

Format settings, Endianness : Big

Codec ID : 2000

Duration : 2h 0mn

Bit rate mode : Constant

Bit rate : 448 Kbps

Channel(s) : 6 channels

Channel positions : Front: L C R, Side: L R, LFE

Sampling rate : 48.0 KHz

Bit depth : 16 bits

Compression mode : Lossy

Stream size : 388 MiB (23%)

Alignment : Split accross interleaves

Interleave, duration : 42 ms (1.00 video frame)

Interleave, preload duration : 500 ms

 

Plot:

 

A look at the lives of the strong-willed women of the Weston family, whose paths have diverged

until a family crisis brings them back to the Oklahoma house they grew up in, and to the

dysfunctional woman who raised them.

 

Cast:

Meryl Streep ... Violet Weston

Julia Roberts ... Barbara Weston

Chris Cooper ... Charlie Aiken

Ewan McGregor ... Bill Fordham

Juliette Lewis ... Karen Weston

2o3w.png

qbqq.png

84hh.png

318z.png

 

download:

 

Sakriveni sadžaj

    Dajte reakciju na ovaj post pritiskom na "Like dugme", da biste videli sakriveni sadržaj.
prevod:

Sakriveni sadžaj

    Dajte reakciju na ovaj post pritiskom na "Like dugme", da biste videli sakriveni sadržaj.

Share this post


Link to post
Share on other sites

dead links

 

Nisu druze mrtvi linkovi, JDownloader ponekad zna i da slaze (npr. kada se radi o billion uploads linkovima). Nadam se da ce to uskoro da isprave...

Moraces da skidas preko web browsera: Kopiraj link u address bar u web bowseru koji koristis, klikni na Download or Watch, odcekiraj onaj dole mali kvadratic i klikni na Download.

Share this post


Link to post
Share on other sites

Create an account or sign in to comment

You need to be a member in order to leave a comment

Create an account

Sign up for a new account in our community. It's easy!

Register a new account

Sign in

Already have an account? Sign in here.

Sign In Now

Sign in to follow this  

×