Jump to content
Sign in to follow this  
veljko73

Captain Phillips (2013)

Recommended Posts

Captain Phillips (2013) DVDRip XviD-MAXSPEED

1.36 GB

 

fguw.jpg

 

imdb.png

 

 

:informacija:

 


 

Captain Phillips (2013) DVDRip XviD-MAXSPEED

Format : AVI

Format/Info : Audio Video Interleave

Format profile : OpenDML

Format settings : rec

File size : 1.36 GiB

Duration : 2h 14mn

Overall bit rate : 1 448 Kbps

Writing application : VirtualDubMod 1.5.10.2 (build 2542/release)

Writing library : VirtualDubMod build 2542/release

Original source form : MAX TORRENTZ

Copyright : SIGISMUNT

 

Video

ID : 0

Format : MPEG-4 Visual

Format profile : Advanced Simple@L5

Format settings, BVOP : 2

Format settings, QPel : No

Format settings, GMC : No warppoints

Format settings, Matrix : Custom

Codec ID : XVID

Codec ID/Hint : XviD

Duration : 2h 14mn

Bit rate : 1 187 Kbps

Width : 720 pixels

Height : 304 pixels

Display aspect ratio : 2.35:1

Frame rate : 23.976 fps

Color space : YUV

Chroma subsampling : 4:2:0

Bit depth : 8 bits

Scan type : Progressive

Compression mode : Lossy

Bits/(Pixel*Frame) : 0.226

Stream size : 1.11 GiB (82%)

Writing library : XviD 1.2.1 (UTC 2008-12-04)

 

Audio

ID : 1

Format : AC-3

Format/Info : Audio Coding 3

Mode extension : CM (complete main)

Format settings, Endianness : Big

Codec ID : 2000

Duration : 2h 14mn

Bit rate mode : Constant

Bit rate : 256 Kbps

Channel(s) : 6 channels

Channel positions : Front: L C R, Side: L R, LFE

Sampling rate : 48.0 KHz

Bit depth : 16 bits

Compression mode : Lossy

Stream size : 245 MiB (18%)

Alignment : Aligned on interleaves

Interleave, duration : 64 ms (1.53 video frames)

Interleave, preload duration : 192 ms

 

Source: DVD-full and foreign parts only english subfiles included

(perfect a/v/sync quality,sample included)

This torrent is not seedbox supported,please seed it to the MAX

 

 


 

:preuzmite:


Sakriveni sadžaj

    Dajte reakciju na ovaj post pritiskom na "Like dugme", da biste videli sakriveni sadržaj.


 

:sifra:


Sakriveni sadžaj

    Dajte reakciju na ovaj post pritiskom na "Like dugme", da biste videli sakriveni sadržaj.

Share this post


Link to post
Share on other sites

Create an account or sign in to comment

You need to be a member in order to leave a comment

Create an account

Sign up for a new account in our community. It's easy!

Register a new account

Sign in

Already have an account? Sign in here.

Sign In Now

Sign in to follow this  

×