Jump to content
Sign in to follow this  
Doctor

A.C.O.D. 2013

Recommended Posts

Adult Children Of Divorce WEBrip Xvid Ac3-MiLLENiUM

ibr85yLrTBqvx4.jpg

Complete name : A.C.O.D. Adult Children Of Divorce 2013 WEBrip Xvid Ac3-MiLLENiUM.avi

Source : WEBDL 720p millenium

Format : AVI

Format/Info : Audio Video Interleave

File size : 1.29 GiB

Duration : 1h 28mn

Overall bit rate : 2 087 Kbps

Writing application : VirtualDubMod 1.5.10.2 (build 2540/release)

Writing library : VirtualDubMod build 2540/release

 

Video

ID : 0

Format : MPEG-4 Visual

Format profile : Advanced Simple@L5

Format settings, BVOP : 2

Format settings, QPel : No

Format settings, GMC : No warppoints

Format settings, Matrix : Default (H.263)

Muxing mode : Packed bitstream

Codec ID : XVID

Codec ID/Hint : XviD

Duration : 1h 28mn

Bit rate : 1 695 Kbps

Width : 720 pixels

Height : 384 pixels

Display aspect ratio : 1.875

Frame rate : 23.976 fps

Color space : YUV

Chroma subsampling : 4:2:0

Bit depth : 8 bits

Scan type : Progressive

Compression mode : Lossy

Bits/(Pixel*Frame) : 0.256

Stream size : 1.04 GiB (81%)

Writing library : XviD 64

 

Audio

ID : 1

Format : AC-3

Format/Info : Audio Coding 3

Mode extension : CM (complete main)

Codec ID : 2000

Duration : 1h 27mn

Bit rate mode : Constant

Bit rate : 384 Kbps

Channel(s) : 6 channels

Channel positions : Front: L C R, Side: L R, LFE

Sampling rate : 48.0 KHz

Bit depth : 16 bits

Compression mode : Lossy

Stream size : 241 MiB (18%)

Alignment : Split accross interleaves

Interleave, duration : 42 ms (1.01 video frame)

Interleave, preload duration : 500 ms

A_C_O_D_Adult_Children_Of_Divorce_2013_W

A_C_O_D_Adult_Children_Of_Divorce_2013_W

A_C_O_D_Adult_Children_Of_Divorce_2013_W

 

download:

 

Sakriveni sadžaj

    Dajte reakciju na ovaj post pritiskom na "Like dugme", da biste videli sakriveni sadržaj.
prevod:

Sakriveni sadžaj

    Dajte reakciju na ovaj post pritiskom na "Like dugme", da biste videli sakriveni sadržaj.

Share this post


Link to post
Share on other sites

Create an account or sign in to comment

You need to be a member in order to leave a comment

Create an account

Sign up for a new account in our community. It's easy!

Register a new account

Sign in

Already have an account? Sign in here.

Sign In Now

Sign in to follow this  

×